您的位置:首页 >> 音乐 >> MV >> [4K超清MV]H奶女神 Mandi陈香菱写真
[4K超清MV]H奶女神 Mandi陈香菱写真
发布用户 1006463224
添加日期 2019/2/14 0:54:29
大  小 21.14 KB
最后更新 2019/4/10 18:08:22
标  签 MV,音乐
喜  欢
分  享
eD2k链接
下面是用户共享的文件列表,可以使用迅雷、QQ旋风等软件进行下载,点击文件名进行下载
在正文 (320).pdg 21.14 KB
21.14 KB


General
Complete name : 20184K-H奶 Mandi陈香菱的写真.mp4
Format : MPEG-4
Format profile : Base Media
Codec ID : isom (isom/iso2/avc1/mp41)
File size : 508 MiB
Duration : 4 min 25 s
Overall bit rate : 16.1 Mb/s
Writing application : Lavf57.41.100

Video
ID : 1
Format : AVC
Format/Info : Advanced Video Codec
Format profile : High@L5.1
Format settings : CABAC / 4 Ref Frames
Format settings, CABAC : Yes
Format settings, ReFrames : 4 frames
Codec ID : avc1
Codec ID/Info : Advanced Video Coding
Duration : 4 min 25 s
Bit rate : 16.0 Mb/s
Width : 3 836 pixels
Height : 1 980 pixels
Display aspect ratio : 1.937
Frame rate mode : Constant
Frame rate : 29.970 (29970/1000) FPS
Color space : YUV
Chroma subsampling : 4:2:0
Bit depth : 8 bits
Scan type : Progressive
Bits/(Pixel*Frame) : 0.070
Stream size : 504 MiB (99%)
Writing library : x264 core 148
Encoding settings : cabac=1 / ref=3 / deblock=1:0:0 / analyse=0x3:0x113 / me=hex / subme=7 / psy=1 / psy_rd=1.00:0.00 / mixed_ref=1 / me_range=16 / chroma_me=1 / trellis=1 / 8x8dct=1 / cqm=0 / deadzone=21,11 / fast_pskip=1 / chroma_qp_offset=-2 / threads=6 / lookahead_threads=1 / sliced_threads=0 / nr=0 / decimate=1 / interlaced=0 / bluray_compat=0 / constrained_intra=0 / bframes=3 / b_pyramid=2 / b_adapt=1 / b_bias=0 / direct=1 / weightb=1 / open_gop=0 / weightp=2 / keyint=250 / keyint_min=25 / scenecut=40 / intra_refresh=0 / rc_lookahead=40 / rc=abr / mbtree=1 / bitrate=16000 / ratetol=1.0 / qcomp=0.60 / qpmin=0 / qpmax=69 / qpstep=4 / ip_ratio=1.40 / aq=1:1.00
Language : English
Codec configuration box : avcC

Audio
ID : 2
Format : AAC LC
Format/Info : Advanced Audio Codec Low Complexity
Codec ID : mp4a-40-2
Duration : 4 min 25 s
Bit rate mode : Constant
Bit rate : 129 kb/s
Channel(s) : 2 channels
Channel layout : L R
Sampling rate : 44.1 kHz
Frame rate : 43.066 FPS (1024 SPF)
Compression mode : Lossy
Stream size : 4.08 MiB (1%)
Language : English
Default : Yes
Alternate group : 1

网盘分流

http://www.567pan.com/file-160739.html

VIP高速下载入口
最性感MV博客datui11.lofter.com
最精致的音乐博客blog.sina.com.cn/yinyue1100