您的位置:首页 >> 综艺 >> 体育节目 >> Perfect.in.76.2017.720p.WEBRip.DD5.1.x264-monkee 1.36GB
Perfect.in.76.2017.720p.WEBRip.DD5.1.x264-monkee 1.36GB
发布用户 dj1937
添加日期 2017/4/8 13:33:27
大  小
最后更新 2017/4/8 13:33:27
标  签 2017,720p
喜  欢
分  享
磁力链接(Magnet URI)
下面是用户共享的磁力链接,可以使用迅雷、QQ旋风等软件进行下载,点击进行下载

[网盘分流]
如电驴无法下载,请大家从网盘下载后将文件移至电驴文件夹用eMule做种,让更多人下载
网盘下载 | http://66yp.cc/file-1264591.html|http://www.feemoo.com/file-1039220.html

暂无中文简介

Video
ID : 1
Format : AVC
Format/Info : Advanced Video Codec
Format profile : High@L3.1
Format settings, CABAC : Yes
Format settings, ReFrames : 5 frames
Codec ID : V_MPEG4/ISO/AVC
Duration : 58mn 24s
Bit rate : 2 633 Kbps
Width : 1 280 pixels
Height : 720 pixels
Display aspect ratio : 16:9
Frame rate mode : Constant
Frame rate : 23.976 (24000/1001) fps
Color space : YUV
Chroma subsampling : 4:2:0
Bit depth : 8 bits
Scan type : Progressive
Bits/(Pixel*Frame) : 0.119
Stream size : 1.07 GiB (79%)
Default : Yes
Forced : No

Audio
ID : 3
Format : E-AC-3
Format/Info : Audio Coding 3
Format settings, Endianness : Big
Codec ID : A_EAC3
Duration : 58mn 24s
Bit rate mode : Constant
Bit rate : 640 Kbps
Channel(s) : 6 channels
Channel positions : Front: L C R, Side: L R, LFE
Sampling rate : 48.0 KHz
Frame rate : 187.500 fps (256 spf)
Compression mode : Lossy
Delay relative to video : -83ms
Stream size : 267 MiB (19%)
Default : Yes
Forced : No

Text
ID : 2
Format : UTF-8
Codec ID : S_TEXT/UTF8
Codec ID/Info : UTF-8 Plain Text
Language : English
Default : No
Forced : No



CC下载站 |精品社区 | 68资源网