您的位置:首页 >> 综艺 >> 纪录片 >> 俄克拉何马城爆炸案 Oklahoma.City.2017.720p.WEB-DL.DD5.1.H264-Coo7 3.11GB
俄克拉何马城爆炸案 Oklahoma.City.2017.720p.WEB-DL.DD5.1.H264-Coo7 3.11GB
发布用户 53969412
添加日期 2017/3/1 20:28:52
大  小
最后更新 2017/3/1 20:28:52
标  签 俄克拉何马城爆炸案,2017,720P
喜  欢
分  享
磁力链接(Magnet URI)
下面是用户共享的磁力链接,可以使用迅雷、QQ旋风等软件进行下载,点击进行下载

[网盘分流]
如电驴无法下载,请大家从网盘下载后将文件移至电驴文件夹用eMule做种,让更多人下载
网盘下载 | http://66yp.cc/file-1220198.html|https://www.feemoo.com/file-948393.html

◎译  名 俄克拉何马城爆炸案

◎片  名 Oklahoma City

◎年  代 2017

◎国  家 美国

◎类  别 纪录片

◎语  言 英语

◎IMDb评分 8.0/10 from 56 users

◎IMDb链接 http://www.imdb.com/title/tt6333090/

◎BT之家整理 http://www.btbtt.co

◎导  演 Barak Goodman

◎简  介

  本片讲述了发生在1995年4月19日针对美国俄克拉何马城市中心艾尔弗雷德·P·默拉联邦大楼发起的本土恐怖主义炸弹袭击案件。(又名:俄克拉何马城爆炸案)

Video
ID : 1
Format : AVC
Format/Info : Advanced Video Codec
Format profile : High@L3.1
Format settings, CABAC : Yes
Format settings, ReFrames : 2 frames
Codec ID : V_MPEG4/ISO/AVC
Duration : 1h 41mn
Bit rate mode : Variable
Bit rate : 3 904 Kbps
Maximum bit rate : 768 Kbps
Width : 1 280 pixels
Height : 718 pixels
Display aspect ratio : 16:9
Frame rate mode : Constant
Frame rate : 23.976 (24000/1001) fps
Color space : YUV
Chroma subsampling : 4:2:0
Bit depth : 8 bits
Scan type : Progressive
Bits/(Pixel*Frame) : 0.177
Stream size : 2.78 GiB (89%)
Language : English
Default : Yes
Forced : No

Audio
ID : 2
Format : AC-3
Format/Info : Audio Coding 3
Mode extension : CM (complete main)
Format settings, Endianness : Big
Codec ID : A_AC3
Duration : 1h 41mn
Bit rate mode : Constant
Bit rate : 384 Kbps
Channel(s) : 6 channels
Channel positions : Front: L C R, Side: L R, LFE
Sampling rate : 48.0 KHz
Frame rate : 31.250 fps (1536 spf)
Compression mode : Lossy
Stream size : 280 MiB (9%)
Language : English
Default : Yes
Forced : No

Text
ID : 3
Format : UTF-8
Codec ID : S_TEXT/UTF8
Codec ID/Info : UTF-8 Plain Text
Language : English
Default : Yes
Forced : No



CC下载站 精品源码 | 68资源网