您的位置:首页 >> 电影 >> 老电影 >> [鬼马双星]Games.Gamblers.Play.1974.BluRay.720p.x264.2Audio.AC3-CnSCG[国粤/2.8G]
[鬼马双星]Games.Gamblers.Play.1974.BluRay.720p.x264.2Audio.AC3-CnSCG[国粤/2.8G]
发布用户 bt
添加日期 2012/5/5 23:56:34
大  小
最后更新 2012/5/5 23:56:34
标  签 老电影,电影
喜  欢
分  享
磁力链接(Magnet URI)
下面是用户共享的磁力链接,可以使用迅雷、QQ旋风等软件进行下载,点击进行下载

原盘压制。封装国、粤两字幕,观看时请正确选择。


◎譯  名 鬼馬雙星
◎片  名 Games Gamblers Play
◎年  代 1974
◎國  家 中國香港
◎類  別 喜劇
◎語  言 普通話/粵語
◎字  幕 繁體中文/英文
◎IMDB評分 6.5/10 (77 votes)
◎IMDB鏈結 http://www.imdb.com/title/tt0071588
◎片  長 103 Mins
◎導  演 許冠文 Michael Hui
◎主  演 喬宏 Roy Chiao
      許冠文 Michael Hui
      許冠英 Ricky Hui
      許冠傑 Sam Hui
      鄭君綿 Cheng Kwan Min
      馮敬文 Ging Man Fung
      何柏光 Pak-Kwong Ho
      許紹雄 Shiu Hung Hui
      羅蘭 Lan Law
      呂有慧 Lisa Lui
      石天 Tean Shek
      丁佩 Betty Ting Pei ....(as Betty Ting)
      黃霑 James Wong
      謝衍 Yan Xie
      陳立品 Maria Chan
      李昆 Kun Li
      Cheung Wah
      陶敏明 Ming Ming Taur
◎簡  介 
  這是香港70年代的典型武打搞笑片。老千鄧國文(許冠文 飾)經常出入於監獄,獄中無聊時,他經常會表演一些自己的千術以資同倉的犯人解悶。犯人劉俊傑(許冠傑 飾)對國文的千術十分佩服,希望出獄後能和他一起合作掙大錢。國文並沒有答應,因為老千一般都獨來獨往。
  兩人出獄後,俊傑組織了一幫老千和國文對賭,國文通過一早買通在場的舞女佩佩將他們擊敗。俊傑更加佩服國文,再次提出兩人合作。國文抵不住他的死纏爛打,終於應承了。兩人計畫向城中惡霸大哥全下手,為了籌集賭資,他們還參加了電視臺的有獎遊戲,國文憑藉聰明的頭腦順利的贏下了獎金。和大哥全對賭的日子到了。
幕後製作
當年,許冠文將親自編寫的得意劇本《鬼馬雙星》交到邵逸夫手中,希望能夠同公司合資拍片平分利潤,邵逸夫認為要求過分,斷然拒絕。許冠傑當時已是嘉禾的簽約藝人,嘉禾老闆鄒文懷答應幫助許氏兄弟創辦電影公司。許冠文轉投嘉禾。1974年,許冠文與弟弟許冠傑等成立許氏兄弟電影公司,自編自導《鬼馬雙星》,獲得空前成功,在香港的票房高達625萬港元,超過李小龍影片以及邵氏同期推出的楚原導演的喜劇片《七十二家房客》,由此引領香港本土鬼馬喜劇的新潮流。《鬼馬雙星》在香港喜劇電影史上和許冠文的創作中,處於承前啟後的重要地位。它繼承了老式港產笑片結構鬆散的傳統,有許多獨立城章的以本土俚語方言編織的笑料堆砌而成;又更加突出了個人表演的作用,精心刻畫人物的詼諧性格和搞笑行為,還極具諷刺自省意味。本片貼近港人生活,風趣幽默,當年香港人有一半進到電影院觀看這部講述他們發財夢的電影。1974年,同名唱片“鬼馬雙星”與電影同時推出,唱片在東南亞總銷量達十五萬,破當年紀錄,“鬼馬雙星”主題曲成為一首在英國BBC電臺及香港電臺英文台播放的中文歌,歌詞“人生如賭博,贏輸都無時定”也成為一些人生活的參考。
General
Complete name : E:\南宫\做种\鬼马双星@圣城南宫\Games.Gamblers.Play.1974.BluRay.720p.x264.2Audio.AC3-CnSCG.mkv
Format : Matroska
File size : 2.81 GiB
Duration : 1h 47mn
Overall bit rate : 3 745 Kbps
Encoded date : UTC 2012-05-05 14:07:12
Writing application : mkvmerge v3.3.0 ('Language') built on Mar 24 2010 14:59:24
Writing library : libebml v0.8.0 + libmatroska v0.9.0
Video
ID : 1
Format : AVC
Format/Info : Advanced Video Codec
Format profile : High@L4.1
Format settings, CABAC : Yes
Format settings, ReFrames : 4 frames
Muxing mode : Container profile=Unknown@4.1
Codec ID : V_MPEG4/ISO/AVC
Duration : 1h 47mn
Bit rate : 2 775 Kbps
Nominal bit rate : 2 848 Kbps
Width : 1 280 pixels
Height : 720 pixels
Display aspect ratio : 16:9
Frame rate : 23.976 fps
Resolution : 24 bits
Colorimetry : 4:2:0
Scan type : Progressive
Bits/(Pixel*Frame) : 0.126
Stream size : 2.08 GiB (74%)
Writing library : x264 core 120 r2164 da19765
Encoding settings : cabac=1 / ref=4 / deblock=1:-3:-3 / analyse=0x3:0x113 / me=umh / subme=9 / psy=1 / psy_rd=1.00:0.00 / mixed_ref=1 / me_range=32 / chroma_me=1 / trellis=2 / 8x8dct=1 / cqm=0 / deadzone=21,11 / fast_pskip=0 / chroma_qp_offset=-1 / threads=6 / sliced_threads=0 / nr=0 / decimate=0 / interlaced=0 / bluray_compat=0 / constrained_intra=0 / bframes=3 / b_pyramid=2 / b_adapt=2 / b_bias=0 / direct=1 / weightb=1 / open_gop=0 / weightp=2 / keyint=240 / keyint_min=23 / scenecut=40 / intra_refresh=0 / rc_lookahead=40 / rc=2pass / mbtree=1 / bitrate=2848 / ratetol=1.0 / qcomp=0.60 / qpmin=0 / qpmax=69 / qpstep=4 / cplxblur=20.0 / qblur=0.5 / ip_ratio=1.40 / aq=1:1.00
Language : English
Audio #1
ID : 2
Format : AC-3
Format/Info : Audio Coding 3
Codec ID : A_AC3
Duration : 1h 47mn
Bit rate mode : Constant
Bit rate : 448 Kbps
Channel(s) : 6 channels
Channel positions : Front: L C R, Surround: L R, LFE
Sampling rate : 48.0 KHz
Stream size : 344 MiB (12%)
Title : 国语
Language : Chinese
Audio #2
ID : 3
Format : AC-3
Format/Info : Audio Coding 3
Codec ID : A_AC3
Duration : 1h 47mn
Bit rate mode : Constant
Bit rate : 448 Kbps
Channel(s) : 6 channels
Channel positions : Front: L C R, Surround: L R, LFE
Sampling rate : 48.0 KHz
Stream size : 344 MiB (12%)
Title : 粤语
Language : Chinese
Text #1
ID : 4
Format : SSA
Codec ID : S_TEXT/SSA
Codec ID/Info : Sub Station Alpha
Title : 国语
Language : Chinese
Text #2
ID : 5
Format : SSA
Codec ID : S_TEXT/SSA
Codec ID/Info : Sub Station Alpha
Title : 粤语
Language : Chinese