您的位置:首页 >> 电影 >> 老电影 >> [最佳拍档1]Aces.Go.Places.1982.BluRay.720p.x264.2Audio.AC3-CnSCG[国粤双语/2.50G]
[最佳拍档1]Aces.Go.Places.1982.BluRay.720p.x264.2Audio.AC3-CnSCG[国粤双语/2.50G]
发布用户 bt
添加日期 2012/5/3 19:16:25
大  小
最后更新 2012/5/3 19:16:25
标  签 老电影,电影
喜  欢
分  享
磁力链接(Magnet URI)
下面是用户共享的磁力链接,可以使用迅雷、QQ旋风等软件进行下载,点击进行下载

◎译  名 最佳拍档1:光头神探/光头神探贼状元
◎片  名 Aces Go Places/Mad Mission/Zuijia Paidang
◎年  代 1982
◎国  家 香港
◎类  别 动作/喜剧
◎语  言 粤语/国语
◎IMDB评分 6.7/10 (571 votes)
◎IMDB链接 http://www.imdb.com/title/tt0084955
◎片  长 93 Mins
◎导  演 曾志伟 Eric Tsang
◎主  演 张艾嘉 Sylvia Chang .....贺东施 Supt. Nancy Ho
      许冠杰 Sam Hui .....King Kong
      麦嘉 Carl Maka .....光头神探 Albert Au
      陈令智 Lindzay Chan .....Ballerina
      陈星 Sing Chen .....狂人星 Mad Max
      曹达华 Dahua Cao .....Hua
      古嘉露 Carroll Gordon .....叮当 Marge
      林子祥 George Lam .....Ambulance driver
      石天 Tean Shek .....口水泉 Gigolo Joe
      徐克 Hark Tsui .....剧团指挥 Cameo appearance
      黄百鸣 Bak-Ming Wong .....Priest
◎简  介 
  剧情围绕神偷黑猫盗宝时无间中遗下一只白手套展开,警方怀疑是国际犯罪集团的“白手套”所为,于是惊动国际刑警,派光头神探前来查案;而黑手党因为有人冒充其“白手套"四处犯罪,也派杀手来港调查。这倒让黑猫感到危机重重,为保命向警方自首,并一起对付真正的“白手套”。
  神偷黑猫劫宝时因无意中留下一只白手套,致使警方怀疑劫宝案为国际犯罪集团的"白手套"所为。经向国际刑警求助,国际刑警派出光头神探来港追缉疑犯。怎料他刚抵港又发生"白手套"劫案,女警探以为他是劫匪,把他捉回警局。珠宝失主飞往罗马与黑手党教父商讨,教父知道香港有人冒允其"白手套"四处犯罪,决定联同杀手来港查个水落石出。这时黑猫感到危机重重,为了保护自己,他向警方自首,并与有关方面携手对付"白手套"。光头神探终于生擒"白手套"归案,并赢得女警探垂青。
◎幕后制作
  香港影坛的另一位喜剧老将麦嘉,在早期与石天,黄百鸣联合组办了新艺城电影公司,并于一九八二年拍摄并主演了这部创业影片《最佳拍挡》。该影片以一种近乎疯狂的喜剧表现手法,深深震撼了广大影迷们的心靈,所以当年一经推出就以其绝对的优势和魅力成功地改写了香港历史最高票房记录。这不但使香港娱乐影片成功地独霸了电影市场的大半壁江山,而且还以其绝对的影响力和号召力,使还很显得年轻稚嫩的新艺城电影公司,一举成为香港制片界公认的“第三势力”。开始与老牌的邵氏、嘉禾相互分割领地,鼎足而立。更加开创了香港商业电影跨越辉煌与大举发展的先河。其对香港电影发展的贡献与意义相当具有开拓性,堪称是领军以时代的经典佳作。
General
Complete name : E:\南宫\做种\最佳拍档1:光头神探@圣城南宫\Aces.Go.Places.1982.BluRay.720p.x264.2Audio.AC3-CnSCG.mkv
Format : Matroska
File size : 2.51 GiB
Duration : 1h 33mn
Overall bit rate : 3 834 Kbps
Encoded date : UTC 2012-05-03 09:21:51
Writing application : mkvmerge v3.3.0 ('Language') built on Mar 24 2010 14:59:24
Writing library : libebml v0.8.0 + libmatroska v0.9.0
Video
ID : 1
Format : AVC
Format/Info : Advanced Video Codec
Format profile : High@L4.1
Format settings, CABAC : Yes
Format settings, ReFrames : 4 frames
Muxing mode : Container profile=Unknown@4.1
Codec ID : V_MPEG4/ISO/AVC
Duration : 1h 33mn
Bit rate : 2 862 Kbps
Nominal bit rate : 2 937 Kbps
Width : 1 280 pixels
Height : 720 pixels
Display aspect ratio : 16:9
Frame rate : 23.976 fps
Resolution : 24 bits
Colorimetry : 4:2:0
Scan type : Progressive
Bits/(Pixel*Frame) : 0.130
Stream size : 1.87 GiB (75%)
Writing library : x264 core 120 r2164 da19765
Encoding settings : cabac=1 / ref=4 / deblock=1:-3:-3 / analyse=0x3:0x113 / me=umh / subme=9 / psy=1 / psy_rd=1.00:0.00 / mixed_ref=1 / me_range=32 / chroma_me=1 / trellis=2 / 8x8dct=1 / cqm=0 / deadzone=21,11 / fast_pskip=0 / chroma_qp_offset=-1 / threads=6 / sliced_threads=0 / nr=0 / decimate=0 / interlaced=0 / bluray_compat=0 / constrained_intra=0 / bframes=3 / b_pyramid=2 / b_adapt=2 / b_bias=0 / direct=1 / weightb=1 / open_gop=0 / weightp=2 / keyint=240 / keyint_min=23 / scenecut=40 / intra_refresh=0 / rc_lookahead=40 / rc=2pass / mbtree=1 / bitrate=2937 / ratetol=1.0 / qcomp=0.60 / qpmin=0 / qpmax=69 / qpstep=4 / cplxblur=20.0 / qblur=0.5 / ip_ratio=1.40 / aq=1:1.00
Language : English
Audio #1
ID : 2
Format : AC-3
Format/Info : Audio Coding 3
Codec ID : A_AC3
Duration : 1h 33mn
Bit rate mode : Constant
Bit rate : 448 Kbps
Channel(s) : 6 channels
Channel positions : Front: L C R, Surround: L R, LFE
Sampling rate : 48.0 KHz
Stream size : 300 MiB (12%)
Title : 国语
Language : Chinese
Audio #2
ID : 3
Format : AC-3
Format/Info : Audio Coding 3
Codec ID : A_AC3
Duration : 1h 33mn
Bit rate mode : Constant
Bit rate : 448 Kbps
Channel(s) : 6 channels
Channel positions : Front: L C R, Surround: L R, LFE
Sampling rate : 48.0 KHz
Stream size : 300 MiB (12%)
Title : 粤语
Language : Chinese
Text #1
ID : 4
Format : SSA
Codec ID : S_TEXT/SSA
Codec ID/Info : Sub Station Alpha
Title : 微软雅黑
Language : Chinese
Text #2
ID : 5
Format : SSA
Codec ID : S_TEXT/SSA
Codec ID/Info : Sub Station Alpha
Title : 蓝白楷体
Language : Chinese