您的位置:首页 >> 电影 >> 惊悚 >> 《双生》(The Double Born)[DVDRip]
《双生》(The Double Born)[DVDRip]
发布用户 sutou
添加日期 2010/4/17 11:07:44
大  小 699.06 MB
最后更新 2010/4/17 13:08:00
标  签 惊悚,电影
喜  欢
分  享
eD2k链接
下面是用户共享的文件列表,可以使用迅雷、QQ旋风等软件进行下载,点击文件名进行下载
[双生].The.Double.Born.2008.DVDRip.XviD-SPRiNTER.avi 699.06 MB
699.06 MB
中文名: 双生
英文名: The Double Born
IMDb: 5.9/10 (23 votes)
资源格式: DVDRip
发行日期: 2008年
导演: Tony Randel
演员: Sammi Davis ... Sophonisba
Jon Lindstrom ... Ephraim
Jake Bern ... Harry
Alex Weed ... Tommy
Jenny Dare Paulin ... Hallie
Lindsey Girardot ... Paula
Charles Noland ... Mr. Stanton
Wray Gould ... Man in bar
地区: 美国
语言: 英语
简介:

◎译  名 双生
◎片  名 The Double Born
◎年  代 2008
◎国  家 美国
◎类  别 惊悚
◎语  言 英语
◎字  幕 N/A
◎IMDB评分 6.6/10 18 votes
◎IMDB链接 http://www.imdb.com/title/tt0928363
◎文件格式 XviD + MP3
◎视频尺寸 592 x 320
◎文件大小 1CD 50 x 15MB
◎片  长 93min
◎导  演 Tony Randel
◎主  演 Sammi Davis ... Sophonisba
      Jon Lindstrom ... Ephraim
      Jake Bern ... Harry
      Alex Weed ... Tommy
      Jenny Dare Paulin ... Hallie
      Lindsey Girardot ... Paula
      Charles Noland ... Mr. Stanton
      Wray Gould ... Man in bar
◎简  介 
几年前独子的失踪让母亲痛苦万分,她希望再生一个小孩,却发现自己的丈夫不能生育了,这对她来说简直是五雷轰顶。不久,这位母亲雇了两个青年小伙子帮忙照顾家族生意。接下来,发生了一些列悲剧、恐怖和杀戮。(文:life_is_good@YDY)
A wife, tortured by the disappearance of her only child years before, desperate to have another child, is devastated when she learns that her husband is infertile. Then two teen-age boys are hired to work on the family property. As the horrors of the past collide with the sins of the present, these three lost soles form a bizarre bond that leads to tragedy, terror and grueling murder.
代码
SPRiNTER proudly presents...
The.Double.Born.2008.DVDRip.XviD-SPRiNTER
http://www.imdb.com/title/tt0928363/
Subtitles: N/A
Date: 2010.04
Director: Tony Randel
Genre: Thriller
Plot: A claustrophobic thriller about two murderous friends, used by a
desperate woman who they dangerously underestimate.
Cast:
Sammi Davis ... Sophonisba
Jon Lindstrom ... Ephraim
Jake Bern ... Harry
Alex Weed ... Tommy
Jenny Dare Paulin ... Hallie
Lindsey Girardot ... Paula
Charles Noland ... Mr. Stanton
Wray Gould ... Man in bar
Release notes
Enjoy!
Greetings
NTX aAF FiCO HNR CiNEFiLE AEN HUMANiSM
Details
Format : AVI
Format/Info : Audio Video Interleave
File size : 699 MiB
Duration : 1h 33mn
Overall bit rate : 1 040 Kbps
Writing application : Nandub v1.0rc2
Writing library : Nandub build 1852/release
Video
ID : 0
Format : MPEG-4 Visual
Format profile : Advanced Simple@L5
Format settings, BVOP : No
Format settings, QPel : No
Format settings, GMC : No warppoints
Format settings, Matrix : Default (H.263)
Codec ID : XVID
Codec ID/Hint : XviD
Duration : 1h 33mn
Bit rate : 901 Kbps
Width : 592 pixels
Height : 320 pixels
Display aspect ratio : 1.850
Frame rate : 23.976 fps
Resolution : 8 bits
Colorimetry : 4:2:0
Scan type : Progressive
Bits/(Pixel*Frame) : 0.198
Stream size : 605 MiB (87%)
Writing library : XviD 1.1.2 (UTC 2006-11-01)
Audio
ID : 1
Format : MPEG Audio
Format version : Version 1
Format profile : Layer 3
Codec ID : 55
Codec ID/Hint : MP3
Duration : 1h 33mn
Bit rate mode : Variable
Bit rate : 127 Kbps
Minimum bit rate : 64.0 Kbps
Channel(s) : 2 channels
Sampling rate : 48.0 KHz
Stream size : 85.3 MiB (12%)
Alignment : Aligned on interleaves
Interleave, duration : 24 ms (0.58 video frame)
Interleave, preload duration : 254 ms
Writing library : LAME3.95
Encoding settings : -m s -V 5 -q 3 -lowpass 17 --vbr-old -b 64
买鞋子哪个网站好?首选中国最大的正品鞋网商城(http://shoes.weixiaodian.com/)、 网上正品鞋城(http://u.weixiaodian.com/shoe/)。微店网页版请从http://121.weixiaodian.com登录:手把手教你如何免费申请开通微店、怎样经营微店及如何用微店赚钱。看笑话,上爱哈啦(http://www.aihala.com/)