您的位置:首页 >> 电影 >> 动作 >> [2017] [欧美] [动作] [WEB-1080P]重装上阵 Once.Upon.a.Time.in.Venice.2017.1080p.WEB-DL.DD5.1.H264-FGT 3.27GB
[2017] [欧美] [动作] [WEB-1080P]重装上阵 Once.Upon.a.Time.in.Venice.2017.1080p.WEB-DL.DD5.1.H264-FGT 3.27GB
发布用户 396881159
添加日期 2017/6/16 18:27:37
大  小
最后更新 2017/6/16 18:27:37
标  签 动作,电影
喜  欢
分  享
磁力链接(Magnet URI)
下面是用户共享的磁力链接,可以使用迅雷、QQ旋风等软件进行下载,点击进行下载
Once.Upon.a.Time.in.Venice.2017.1080p.WEB-DL.DD5.1.H264-FGT

◎译  名 重装上阵

◎片  名 Once Upon a Time in Venice

◎年  代 2017

◎产  地 美国

◎类  别 喜剧/动作

◎语  言 英语

◎上映日期 2017-06-16(美国)

◎导  演 马克·卡伦 Mark Cullen / 罗布·卡伦 Robb Cullen

◎主  演 布鲁斯·威利斯 Bruce Willis

      杰森·莫玛 Jason Momoa

      法米克·詹森 Famke Janssen

      约翰·古德曼 John Goodman

      托马斯·米德蒂奇 Thomas Middleditch

      伊丽莎白·霍尔姆 Elisabeth Röhm

      亚当·戈德堡 Adam Goldberg

      卡尔·潘 Kal Penn

      伍德·哈里斯 Wood Harris

      斯黛芬妮·西格曼 Stephanie Sigman

      比利·加德尔 Billy Gardell

      莫里斯·孔特 Maurice Compte

      艾米丽 罗宾森 Emily Robinson

      阿砖·马丁斯 Adrian Martinez

      Sol Rodriguez

◎简  介

  威利斯饰演的私家侦探史蒂夫的宠物狗被掳走,自此他的工作和生活成了一团乱麻,为救出爱犬巴迪,史蒂夫与杰森·莫玛饰演的黑帮头子斯派德达成神秘协议。

Video
ID : 1
Format : AVC
Format/Info : Advanced Video Codec
Format profile : High@L4
Format settings, CABAC : Yes
Format settings, ReFrames : 5 frames
Codec ID : V_MPEG4/ISO/AVC
Duration : 1 h 34 min
Bit rate : 4 487 kb/s
Width : 1 912 pixels
Height : 792 pixels
Display aspect ratio : 2.40:1
Frame rate mode : Constant
Frame rate : 23.976 (24000/1001) FPS
Color space : YUV
Chroma subsampling : 4:2:0
Bit depth : 8 bits
Scan type : Progressive
Bits/(Pixel*Frame) : 0.124
Stream size : 2.95 GiB (90%)
Title : Once.Upon.a.Time.in.Venice.2017.1080p.WEB-DL.DD5.1.H264-FGT
Language : English
Default : Yes
Forced : No
Color range : Limited
Color primaries : BT.709
Transfer characteristics : BT.709
Matrix coefficients : BT.709

Audio
ID : 2
Format : AC-3
Format/Info : Audio Coding 3
Format settings, Endianness : Big
Codec ID : A_AC3
Duration : 1 h 34 min
Bit rate mode : Constant
Bit rate : 384 kb/s
Channel(s) : 6 channels
Channel positions : Front: L C R, Side: L R, LFE
Sampling rate : 48.0 kHz
Frame rate : 31.250 FPS (1536 spf)
Bit depth : 16 bits
Compression mode : Lossy
Delay relative to video : -42 ms
Stream size : 259 MiB (8%)
Title : Once.Upon.a.Time.in.Venice.2017.1080p.WEB-DL.DD5.1.H264-FGT
Language : English
Service kind : Complete Main
Default : Yes
Forced : No

Text
ID : 3
Format : UTF-8
Codec ID : S_TEXT/UTF8
Codec ID/Info : UTF-8 Plain Text
Language : English
Default : Yes
Forced : No

Menu
00:00:00.000 : en:1
00:11:39.366 : en:2
00:20:29.562 : en:3
00:31:51.285 : en:4
00:41:57.641 : en:5
00:52:00.535 : en:6
01:01:14.422 : en:7
01:10:29.685 : en:8
01:21:39.730 : en:9
01:29:47.676 : en:10



迅雷影视
http://www.xunleiyingshi.com