您的位置:首页 >> 电影 >> 惊悚 >> 柏林综合症 Berlin.Syndrome.2017.1080p.WEB-DL.DD5.1.H264-FGT 4GB
柏林综合症 Berlin.Syndrome.2017.1080p.WEB-DL.DD5.1.H264-FGT 4GB
发布用户 dj1937
添加日期 2017/5/28 3:24:43
大  小
最后更新 2017/5/28 3:24:43
标  签 柏林综合症,2017,1080p
喜  欢
分  享
磁力链接(Magnet URI)
下面是用户共享的磁力链接,可以使用迅雷、QQ旋风等软件进行下载,点击进行下载
Berlin.Syndrome.2017.1080p.WEB-DL.DD5.1.H264-FGT
[网盘分流]
如电驴无法下载,请大家从网盘下载后将文件移至电驴文件夹用eMule做种,让更多人下载
网盘下载 :
http://www.jkpan.cc/download/e4j25NYY|http://www.666pan.cc/file-146733.html|http://fsl.to/6jaera

◎译  名 柏林综合症

◎片  名 Berlin Syndrome

◎年  代 2017

◎产  地 澳大利亚

◎类  别 惊悚

◎语  言 英语

◎上映日期 2017-01-20(圣丹斯电影节)/2017-02-14(柏林电影节)

◎IMDb评分 6.8/10 from 493 users

◎IMDb链接 http://www.imdb.com/title/tt3335606/

◎BT之家整理 http://www.btbtt.co

◎片  长 116分钟

◎导  演 凯特·休特兰 Cate Shortland

◎主  演 泰莉莎·帕尔墨 Teresa Palmer

      马克思·雷迈特 Max Riemelt

      马赛斯·哈贝奇 Matthias Habich

      露西·阿伦 Lucie Aron

◎简  介

  澳大利亚摄影记者克莱尔(泰莉莎·帕尔墨 Teresa Palmer 饰)在柏林度假时邂逅了当地男子安迪(马克思·雷迈特 Max Riemelt 饰),一见钟情的两人共度春宵,激情过后意想不到的危险来临,克莱尔醒来时发现自己被安迪反锁在家中,而安迪似乎并不打算让她离开……

Video
ID : 1
Format : AVC
Format/Info : Advanced Video Codec
Format profile : High@L4
Format settings, CABAC : Yes
Format settings, ReFrames : 5 frames
Codec ID : V_MPEG4/ISO/AVC
Duration : 1h 55mn
Bit rate : 4 457 Kbps
Width : 1 920 pixels
Height : 792 pixels
Display aspect ratio : 2.40:1
Frame rate mode : Constant
Frame rate : 24.000 fps
Color space : YUV
Chroma subsampling : 4:2:0
Bit depth : 8 bits
Scan type : Progressive
Bits/(Pixel*Frame) : 0.122
Stream size : 3.61 GiB (90%)
Title : Berlin.Syndrome.2017.1080p.WEB-DL.DD5.1.H264-FGT
Language : English
Default : Yes
Forced : No
Color range : Limited
Color primaries : BT.709
Transfer characteristics : BT.709
Matrix coefficients : BT.709

Audio
ID : 2
Format : AC-3
Format/Info : Audio Coding 3
Mode extension : CM (complete main)
Format settings, Endianness : Big
Codec ID : A_AC3
Duration : 1h 55mn
Bit rate mode : Constant
Bit rate : 384 Kbps
Channel(s) : 6 channels
Channel positions : Front: L C R, Side: L R, LFE
Sampling rate : 48.0 KHz
Frame rate : 31.250 fps (1536 spf)
Compression mode : Lossy
Delay relative to video : -42ms
Stream size : 318 MiB (8%)
Title : Berlin.Syndrome.2017.1080p.WEB-DL.DD5.1.H264-FGT
Language : English
Default : Yes
Forced : No

Text #1
ID : 3
Format : UTF-8
Codec ID : S_TEXT/UTF8
Codec ID/Info : UTF-8 Plain Text
Title : FORCED
Language : English
Default : Yes
Forced : Yes

Text #2
ID : 4
Format : UTF-8
Codec ID : S_TEXT/UTF8
Codec ID/Info : UTF-8 Plain Text
Language : English
Default : No
Forced : No

Menu
00:00:00.000 : en:Opening Sequence
00:07:13.000 : en:In Search Of Something
00:14:44.000 : en:Empty Places
00:21:42.000 : en:Locked In
00:30:21.000 : en:Mine
00:36:10.000 : en:What Is Going On?
00:43:56.000 : en:There\'s Nowhere To Go
00:50:24.000 : en:You Have Me
00:58:28.000 : en:Who Was That?
01:05:21.000 : en:Left Alone
01:12:30.000 : en:My Father\'s Dead
01:19:55.000 : eno You Like It?
01:28:52.000 : en:New Year\'s Eve
01:36:57.000 : enack Your Things
01:43:09.000 : en:Escape
01:50:48.000 : en:End Credits



CC下载站 |精品社区 | 68资源网